У Вас отключён javascript.
В данном режиме, отображение ресурса
браузером не поддерживается

Dash & Cam - Форум для обсуждения видеорегистраторов и экшн-камер

Информация о пользователе

Привет, Гость! Войдите или зарегистрируйтесь.



INSTA360 ONE R - Прорыв или пиар???

Сообщений 1 страница 5 из 5

1

Вопрос в названии темы задан, скорее всего, самому себе...)
https://i.imgur.com/tq7Qxu3.jpg

Пока что качаю оригиналы видео из данного обзора:
https://creatorup.com/insta360-one-r-in-depth-review/

Хоть и весят немеряно, но любопытство покоя не даёт...
Оригиналы фото не впечатлили, если честно...

+1

2

Режим ProRes 4К, статика, идеальное освещение...

Свойства файла (MediaInfo):

Общее
Полное имя                               : D:\VID_20200115_124646_00_045_4Kregular.mov
Формат                                   : MPEG-4
Профиль формата                          : Base Media
Идентификатор кодека                     : isom (isom/iso2/mp41)
Размер файла                             : 5,50 Гбайт
Продолжительность                        : 54 с. 635 мс.
Режим общего битрейта                    : Переменный
Общий поток                              : 865 Мбит/сек
Дата кодирования                         : UTC 2020-01-15 20:46:36
Дата пометки                             : UTC 2020-01-15 20:46:36
Программа кодирования                    : Lavf58.13.101

Видео
Идентификатор                            : 1
Формат                                   : ProRes
Версия формата                           : Version 0
Профиль формата                          : 422
Идентификатор кодека                     : apcn
Продолжительность                        : 54 с. 621 мс.
Вид битрейта                             : Переменный
Битрейт                                  : 865 Мбит/сек
Ширина                                   : 3840 пикселей
Высота                                   : 2160 пикселей
Соотношение сторон                       : 16:9
Режим частоты кадров                     : Постоянный
Частота кадров                           : 29,970 (30000/1001) кадров/сек
Цветовое пространство                    : YUV
Субдискретизация насыщенности            : 4:2:2
Тип развёртки                            : Прогрессивная
Бит/(Пиксели*Кадры)                      : 3.479
Размер потока                            : 5,50 Гбайт (100%)
Библиотека кодирования                   : fmpg
Дата кодирования                         : UTC 2020-01-15 20:46:36
Дата пометки                             : UTC 2020-01-15 20:46:36
Коэффициенты матрицы                     : BT.601

Аудио
Идентификатор                            : 2
Формат                                   : AAC LC
Формат/Информация                        : Advanced Audio Codec Low Complexity
Идентификатор кодека                     : mp4a-40-2
Продолжительность                        : 54 с. 635 мс.
Вид битрейта                             : Постоянный
Битрейт                                  : 129 Кбит/сек
Каналы                                   : 2 канала
ChannelLayout                            : L R
Частота                                  : 48,0 КГц
Частота кадров                           : 46,875 кадров/сек (1024 SPF)
Метод сжатия                             : С потерями
Размер потока                            : 862 Кбайт (0%)
Default                                  : Да
AlternateGroup/String                    : 1
Дата кодирования                         : UTC 2020-01-15 20:46:36
Дата пометки                             : UTC 2020-01-15 20:46:36


Ключевой кадр:
https://i.ibb.co/TkZmBRT/111.jpg
Обращаем внимание на обведённое красным:
https://i.ibb.co/xXL72w7/222.jpg

Вот почему надо смотреть оригиналы, а не YouTube-"обзоры"...
Хоть и дюйм, но я всё-равно не готов за ЭТО платить. За такой ценник ожидаешь
увидеть качественный прорыв, а не артефакты и пересветы в идеальных условиях...

+1

3

При этом одна минута весит 6Гб...
Это ни в какие ворота........... https://image.ibb.co/d1Lh6w/yarost.gif

0

4

полноразмерные чегой-то не грузятся ....

Цифирьки из метаинфы штырят и колбасят....
865 mb/s  = это ж на какую карту писать то ....
и почти 6 гигов за минуту записи ! 45 минут и 256гб закончились

0

5

v_max написал(а):

полноразмерные чегой-то не грузятся ....


Попробуй открыть ссылку в новом окне...
Не сработает, перезалью...

Перезалил:

https://cloud.mail.ru/public/2yod/3rLSz3TWB


0